<?xml version="1.0" standalone="no"?>
<!DOCTYPE svg PUBLIC "-//W3C//DTD SVG 1.1//EN" "http://www.w3.org/Graphics/SVG/1.1/DTD/svg11.dtd" >
<svg xmlns="http://www.w3.org/2000/svg" xmlns:xlink="http://www.w3.org/1999/xlink" version="1.1">
<metadata>
Created by FontForge 20230101 at Thu Jan  4 20:13:27 2024
 By John Smith
Copyright Dave Gandy 2015. All rights reserved.
</metadata>
<defs>
<font id="FontAwesome" horiz-adv-x="1792" >
  <font-face 
    font-family="FontAwesome"
    font-weight="400"
    font-stretch="normal"
    units-per-em="1792"
    panose-1="0 0 0 0 0 0 0 0 0 0"
    ascent="1536"
    descent="-256"
    bbox="-12 -234 1792 1536"
    underline-thickness="0"
    underline-position="0"
    unicode-range="U+0020-F500"
  />
<missing-glyph horiz-adv-x="896" 
d="M224 112h448v1312h-448v-1312zM112 0v1536h672v-1536h-672z" />
    <glyph glyph-name=".notdef" horiz-adv-x="896" 
d="M224 112h448v1312h-448v-1312zM112 0v1536h672v-1536h-672z" />
    <glyph glyph-name=".null" horiz-adv-x="0" 
 />
    <glyph glyph-name="nonmarkingreturn" horiz-adv-x="597" 
 />
    <glyph glyph-name="space" unicode=" " horiz-adv-x="448" 
 />
    <glyph glyph-name="uni00A0" unicode="&#xa0;" horiz-adv-x="448" 
 />
    <glyph glyph-name="dieresis" unicode="&#xa8;" 
 />
    <glyph glyph-name="copyright" unicode="&#xa9;" 
 />
    <glyph glyph-name="registered" unicode="&#xae;" 
 />
    <glyph glyph-name="acute" unicode="&#xb4;" 
 />
    <glyph glyph-name="AE" unicode="&#xc6;" 
 />
    <glyph glyph-name="Oslash" unicode="&#xd8;" 
 />
    <glyph glyph-name="uni2000" unicode="&#x2000;" horiz-adv-x="768" 
 />
    <glyph glyph-name="uni2001" unicode="&#x2001;" horiz-adv-x="1537" 
 />
    <glyph glyph-name="uni2002" unicode="&#x2002;" horiz-adv-x="768" 
 />
    <glyph glyph-name="uni2003" unicode="&#x2003;" horiz-adv-x="1537" 
 />
    <glyph glyph-name="uni2004" unicode="&#x2004;" horiz-adv-x="512" 
 />
    <glyph glyph-name="uni2005" unicode="&#x2005;" horiz-adv-x="384" 
 />
    <glyph glyph-name="uni2006" unicode="&#x2006;" horiz-adv-x="256" 
 />
    <glyph glyph-name="uni2007" unicode="&#x2007;" horiz-adv-x="256" 
 />
    <glyph glyph-name="uni2008" unicode="&#x2008;" horiz-adv-x="192" 
 />
    <glyph glyph-name="uni2009" unicode="&#x2009;" horiz-adv-x="307" 
 />
    <glyph glyph-name="uni200A" unicode="&#x200a;" horiz-adv-x="85" 
 />
    <glyph glyph-name="uni202F" unicode="&#x202f;" horiz-adv-x="307" 
 />
    <glyph glyph-name="uni205F" unicode="&#x205f;" horiz-adv-x="384" 
 />
    <glyph glyph-name="trademark" unicode="&#x2122;" 
 />
    <glyph glyph-name="infinity" unicode="&#x221e;" 
 />
    <glyph glyph-name="notequal" unicode="&#x2260;" 
 />
    <glyph glyph-name="uni25FC" unicode="&#x25fc;" horiz-adv-x="500" 
d="M0 0z" />
    <glyph glyph-name="uniF004" unicode="&#xf004;" 
d="M896 -128q-26 0 -44 18l-624 602q-10 8 -27.5 26t-55.5 65.5t-68 97.5t-53.5 121t-23.5 138q0 220 127 344t351 124q62 0 126.5 -21.5t120 -58t95.5 -68.5t76 -68q36 36 76 68t95.5 68.5t120 58t126.5 21.5q224 0 351 -124t127 -344q0 -221 -229 -450l-623 -600
q-18 -18 -44 -18z" />
    <glyph glyph-name="uniF005" unicode="&#xf005;" 
d="M884 1484q43 0 78 -32q22 -22 35 -52l-2 4l207 -419l462 -68q38 -5 66 -24q20 -13 35 -38t15 -53v-8l-2 -8q-11 -50 -49 -84l2 1l-335 -324l80 -460v2q3 -17 3 -36q-1 -43 -23 -74q-14 -19 -39 -31.5t-50 -12.5q-40 1 -74 20l2 -1l-413 218l-412 -218l1 1
q-32 -18 -70 -20h-2h-1q-25 0 -49.5 12t-38.5 31q-24 32 -24 76l2 21v5l81 466l-335 325l2 -1q-40 37 -47 91l-1 4v5q0 27 15.5 52.5t35.5 38.5q24 16 62 24h2l463 68l208 419l-1 -2q12 28 34 48q34 34 77 34z" />
    <glyph glyph-name="uniF006" unicode="&#xf006;" 
d="M884 1483q43 0 78 -32q22 -22 35 -52l-2 4l207 -419l462 -68q38 -5 66 -24q20 -13 35 -38t15 -53v-8l-2 -8q-11 -50 -49 -84l2 1l-335 -324l80 -460v2q3 -17 3 -36q-1 -43 -23 -74q-14 -19 -39 -31.5t-50 -12.5v0q-40 1 -74 20l2 -1l-413 218l-412 -218l1 1
q-32 -18 -70 -20h-2h-1q-25 0 -49.5 12t-38.5 31q-24 32 -24 76l2 21v5l81 466l-335 325l2 -1q-40 37 -47 91l-1 4v5q0 27 15.5 52.5t35.5 38.5q24 16 62 24h2l463 68l208 419l-1 -2q12 28 34 48q34 34 77 34v0zM884 1311l-225 -455l-506 -74l366 -356l-87 -502l450 238
l451 -238l-87 502l366 357l-503 73z" />
    <glyph glyph-name="uniF017" unicode="&#xf017;" horiz-adv-x="1536" 
d="M896 992v-448q0 -14 -9 -23t-23 -9h-320q-14 0 -23 9t-9 23v64q0 14 9 23t23 9h224v352q0 14 9 23t23 9h64q14 0 23 -9t9 -23zM1312 640q0 148 -73 273t-198 198t-273 73t-273 -73t-198 -198t-73 -273t73 -273t198 -198t273 -73t273 73t198 198t73 273zM1536 640
q0 -209 -103 -385.5t-279.5 -279.5t-385.5 -103t-385.5 103t-279.5 279.5t-103 385.5t103 385.5t279.5 279.5t385.5 103t385.5 -103t279.5 -279.5t103 -385.5z" />
    <glyph glyph-name="uniF10C" unicode="&#xf10c;" horiz-adv-x="1536" 
d="M136 631q0 129 50 246t134.5 201.5t201.5 134.5t246 50t246 -50t201.5 -134.5t134.5 -201.5t50 -246t-50 -246t-134.5 -201.5t-201.5 -134.5t-246 -50t-246 50t-201.5 134.5t-134.5 201.5t-50 246zM0 631q0 -209 103 -385.5t279.5 -279.5t385.5 -103t385.5 103
t279.5 279.5t103 385.5t-103 385.5t-279.5 279.5t-385.5 103t-385.5 -103t-279.5 -279.5t-103 -385.5zM768 1131q24 0 43 -19q13 -12 20 -30l-1 2l115 -244l258 -39q21 -3 37 -14q11 -8 19.5 -22.5t8.5 -30.5v-5l-1 -5q-7 -28 -28 -48h1l-186 -189l44 -267v1q2 -10 2 -21
q-1 -25 -13 -43q-8 -11 -22 -18.5t-27 -7.5q-23 1 -42 12l1 -1l-230 127l-230 -127l1 1q-19 -11 -40 -12h-1h-1q-13 0 -27 7t-21 18q-14 19 -14 45l1 12v3l45 271l-186 189q-22 21 -26 52v3v3q0 16 8.5 30.5t19.5 22.5q14 9 35 14h1l259 39l115 244v-1q7 17 19 28
q19 20 43 20v0z" />
    <glyph glyph-name="_446" unicode="&#xf1db;" horiz-adv-x="1536" 
 />
    <glyph glyph-name="_623" unicode="&#xf298;" 
 />
    <glyph glyph-name="_624" unicode="&#xf299;" 
 />
    <glyph glyph-name="_625" unicode="&#xf29a;" 
 />
    <glyph glyph-name="_626" unicode="&#xf29b;" 
 />
    <glyph glyph-name="_627" unicode="&#xf29c;" 
 />
    <glyph glyph-name="_628" unicode="&#xf29d;" 
 />
    <glyph glyph-name="_629" unicode="&#xf29e;" 
 />
    <glyph glyph-name="lessequal" unicode="&#xf500;" 
 />
    <glyph glyph-name="uniF111" unicode="&#xf111;" 
d="M136.063 642q0 128.584 50.04 245.611q50.0391 117.027 134.648 201.637t201.637 134.649t245.611 50.04t245.611 -50.04q117.028 -50.04 201.638 -134.649t134.648 -201.637q50.04 -117.027 50.04 -245.611t-50.04 -245.611q-50.0391 -117.028 -134.648 -201.638
t-201.638 -134.648q-117.027 -50.04 -245.611 -50.04t-245.611 50.04q-117.027 50.0391 -201.637 134.648t-134.648 201.638q-50.04 117.027 -50.04 245.611zM0 642q0 -209 103 -385.5t279.5 -279.5t385.5 -103q156.232 0 298.454 60.8271q142.222 60.8281 245.057 163.662
q102.835 102.835 163.662 245.057q60.8281 142.222 60.8281 298.454t-60.8281 298.454q-60.8271 142.222 -163.662 245.056q-102.835 102.835 -245.057 163.663q-142.222 60.8271 -298.454 60.8271q-209 0 -385.5 -103t-279.5 -279.5t-103 -385.5zM534.741 1024.57
q34.6006 0 70.5918 -11.998q35.9932 -11.9971 66.9639 -32.3652q30.9697 -20.3682 53.292 -38.2256q22.3213 -17.8574 42.4111 -37.9463q20.0889 20.0889 42.4111 37.9463q22.3193 17.8564 53.292 38.2256q30.9707 20.3672 66.9639 32.3652q35.9941 11.999 70.5918 11.998
q124.999 0 195.871 -69.1963q70.8691 -69.1953 70.8701 -191.964q0 -123.326 -127.79 -251.116l-347.656 -334.821q-10.0439 -10.0459 -24.5537 -10.0449q-14.5098 0 -24.5537 10.0449l-323.708 312.296l-0.206055 0.198242l-24.2998 23.4434
q-5.58105 4.46387 -15.3467 14.5088q-9.76465 10.0449 -30.9707 36.5508q-21.2051 26.5059 -37.9463 54.4092q-16.7402 27.9014 -29.8545 67.5215q-13.1143 39.6211 -13.1143 77.0098q0 122.766 70.8701 191.964q70.8701 69.1953 195.871 69.1963z" />
  </font>
</defs>
</svg>
